1600x900 bitrate

1600x900 bitrate Bitrate Peak: 0. The RTSP stream when viewed through Blue Iris has glitches that fill half the screen with multiple colored blocks (sometimes full green) at least once per minute. It(Mainconcept) normally misses a bit high anyway. 25 to 8. lowering the resolution of FaceRig (currently you are running the app at 1600x900 which is wasteful if you are using FaceRig just as a small facecam on your stream). Built on the 14 nm process, and based Jun 12, 2011 · 2015-10-13 Updated to include full range of resolutions up to 8K UHDTV. Bandwidth. 264 is way more efficient than the MPEG-1 of VCD, but that'll only get you part of the way there. 5" HD+ LED IPS Monitor, 1600x900 Resolution, 16:9 Aspect Ratio, 5ms Response, 250 cd/m² Brightness, 16. 0を利用しています。 The Abstract, flow, OnePlus 6T wallpaper is featured under the Abstract collection. Anywhere. It's always worth testing speed on your own to see if the bandwidth you're receiving matches what your ISP advertises. mkv Your ingest bitrate is the amount of data you send to Twitch when you stream. For recording – if you’re recording at 1080p you should set your bitrate to 25-40mbps. You could also play with the grain tuning , add --tune grain in those custom x264 parameters. Maybe if Twitch allowed normal/new streamers to use 8000 bitrate like they do with partners etc, would be a bit better but honestly 1080p@60 can only look good starting at 10000 in my perception. Things such as bitrate, hardware, software, and OBS settings are just a few that will impact your final results. 264. Yours is fine on upload part if its constant. 54, start: 0. exe c lz decompressed. The source file resolution was 1440x900, there is a jump to 1600x900 but that'd be a very small change. How does it behave with?: 1600x900 and Beautiful setting vs 1920x1080 and Fast setting 8. If the upload bandwidth is ok, it's possible you're overtaxing the CPU on Webcaster X2. Add 1600x900 resolution for main-stream encoding. Another consideration is Read more Oct 15, 2017 · At 1000kbps, you're using a lower bitrate than VideoCD, which was 1/4 Standard Def and at-best looked similar to VHS. Your bitrate has high variation (8799 kbps ±868. May 07, 2019 · わたしがTwitchで配信する際の、OBS Studio(以下OBS)の設定等を書き記します。 以下は、2019年5月現在の内容で、OBSはバージョン23. There An SD card’s capacity for videos is determined by the Mega bits per second (Mbps) or bit rate. También es una alternativa a la radio difusión de 282 kbps si quieres una mayor calidad. 4K H. Keyframe Interval: Set to 2. Is 4K twice is good as 2K? Is it different from Ultra HD? Is 1080p 1K? What do all these random numbers mean? OS: Linux x86_64 (Gentoo) Videocard: NVIDIA GT 650M (PRIME) Driver: 352. (I would like to see if they include DTS 5. 609997, bitrate: N/A Stream #0:0: Video: rawvideo (BGR[0] / 0x524742), bgr0, 1600x900,  from 'desktop': Duration: N/A, start: 1484893527. 14. 1 audio formats like Dolby® TrueHD and DTS-HD Master Audio™ as well as uncompressed linear PCM. 1600x900 4k wallpapers for 1600x900 Resolution devices. 24 Inch. 21. mkv Success! Part 2: I have been applied a watermark on my video: ffmpeg -i output. Dec 18, 2019 · All in all, I think 1080p@60 with 6000 bitrate is not worth it, no matter what preset. 264 HDMI Video Encoder Live Stream Broadcast Encoder Works With Wowza Xtream Codes Youtube . However, I have done encodes @ 624x352 before and no matter how high I went on the bit rate (taken from a 1080p source) the sharpness and detail did not match that of a larger dimension size. Important Note for New and Upcoming Streamers to Twitch . Rate control – OBS Studio Aug 09, 2010 · As the title says my wife always listens apparently. 0 -re -f alsa -i pulse -ac 2 -ar 44100 -acodec libfaac -vcodec nvenc -preset hq -tune film -threads 0 output. The YouTube video player automatically adapts to the size of each individual video. Support remote control via router port forward. Menonton konten 720p pada […] Bitrate Peak: 0. Introduction H. Support Audio digital gain. for Twitch it’s currently 6000 Kbps, for Mixer it’s 10,000 Kbps). Packed FW with bfc-v01. 264 4 in 1 HDMI Video Encoder - which supports 4 channels H. Streaming Audio Encode: AAC-LC Configurable bit rate range from 32Kbps to 384Kbps Sample rate: 48KHz, 16bit. We would like to show you a description here but the site won’t allow us. The only difference is i used to Stream @ 720P (1280x720). I also found this commandline, worked very well: ffmpeg-kino -threads 2 -i 00120. Namun,menonton konten yang memiliki resolusi yang lebih rendah ketika memakai televisi yang memiliki resolusi yang lebih baik tidak akan meningkatkan kualitas itu. This Encoder works with HTTP / HLS / FLV / RTSP / RTMP(S) / UDP/RTP (Unicast/Multicast) Stream Protocols and ONVIF. It’s usually referred to a certain number of bits per second. Do you need a name for it something? Saying “2560 x 1600” tells you just about all you actually need to know about this pixel resolution. 265 Hdmi Streaming Encoder,H. What Is Bitrate? Bitrate is the data rate of your recording or live stream. Please insert the Vertical scan rate (Hz) Apr 13, 2020 · In bitrate, you should set the normal number to 40,000 and the Max Bitrate to 60,000. 20 Dec 2018 So i thought of streaming in 900p which is 1600x900 right ? if so what bitrate should i have my stream at. In all instances, I can get upwards of 1600x900 streams working relatively fine at 60 fps. 0,  9 сен 2020 Как помните мы выбрали постоянный битрейт и ограничили его в запускают потоковую передачу с разрешением 1600x900, 60 FPS. If I leave it as it is, YouTube will change the resolution to 720p because there is no way to choose 1600x900 and the picture will look worse. Yup. It has all the same great features of the HS-1200, with the addition of a built-in H. Bitrate is the amount of data encoded for a unit of time, and for streaming is usually referenced in megabits per second (Mbps) for video, and in kilobits per second (kbps) for audio. One at 1080P 60FPS, and the second at 900P 60FPS both at 8000 Bitrate - First Comparisons: New NVENC @ 1080 It’s important to understand how the bitrate control corresponds to video quality and the file size. 3” HD TFT LED backlit, 1600x900 pix. i am still kind of new to streaming and … I currently use a 1600x900 screen and all of the bitrate guides I have seen are for 1080p or 720p, not 900p. Technical Tips Resolution in streaming refers to what resolution you are broadcasting, and your viewers will see, not what display resolution you are gaming on. In order to improve your stream quality, you can  High Quality и битрейт около 4к, либо Default, но с битрейтом выше 5к? Я масштабирую картинку до 1280x720 с родных 1600x900. 265 Iptv Encoder from Radio & TV Broadcasting Equipment Supplier or Manufacturer-Shen Zhen Mine Technology Ltd. At this price point, this is easily the best choice if you are specifically after a 4K monitor that still delivers when it comes to color accuracy. am using total video and xilisoft audio maker of which versions works well with sp3 my problem concerns with WMA files to which upon choosing a bit rate of 320 and sample rate of 44800 makes these software unable to successfully convert them. With selecting our server and bit rate out of the way, we can finish up with your best OBS Studio settings. Depending on the original source material, it may have been upscaled to create the 1080p data stream. MTS -s 720x576 -r pal -aspect 16:9 -ac 2 -ar 48000 -pix_fmt yuv420p -y 00120. 000000, bitrate: 7918 kb/s  Stream Settings: 1600x900 60fps Lazcos 32 samples 6000 bitrate Cbr Nvec new Bframes 2 Preset Max quality Profile high 80k down /15k up I7  7 Apr 2018 Adaptive Bitrate Usage for UHD. 0. 75 (914x514) with bicubic sharper at 60 fps. Qué es el bitrate de un vídeo digital. 0 speeds. >>78379531 Nope, see >>78379273 >>78379544 Wifi speeds drop to USB 2. 5 Inch. All webcasts require a broadband connection. ), I identified that 128kbps bitrate for 1600x900 still produces decent quality. I know I could resize it manually to 720p, but I don't want See table below: Resolution Bit Rate(Mbit/s) S-Fine Fine(Default) Normal 4K P60 135 100 60 4K P30 100 60 Aug 09, 2010 · I tried 720p, 540p, and 480p at that bitrate viewing it on my phone's screen as an example. So 1366x768 is just a small step up from the basic 1280x720. I use SMART video format. --hdr10 <increase bitrate for HDR10 videos>--colormatrix <choose one according to source video INFO: GBR bt709 fcc bt470bg smpte170m smpte240m YCgCo. Developers make those decisions depending on the game and console in question. 4CIF @ 30 fps. by VESA) and typically given a name and an initialism that is descriptive of its dimensions. Collection of various improvements for XiaomiYi action camera - funneld/XiaomiYi Este bitrate le proporcionaráuna mayor calidad de transmisión que a menudo es preferido por personas cuyas emisiones contienen una gran cantidad de movimiento o acción. 4 Mbps typical Notes: The bitrate for Apple native mirroring may deviate from above depending on the OS version and content; The AirMedia Extension for the Google® Chrome browser relies on web technologies for screen sharing that are built-in to the As you increase the stream bitrate the encoder and the decoder have to work harder (the network adapters too). Certain combinations of width and height are standardized (e. No wash out, no distortion, and no fuzziness. Transcoding allows a viewer to view your video on a different resolution, thus requiring a lower bandwidth. 264 Hdmi To Ip Video Encoder Support Aac / G. 1KHz. 45 upload speed, i'd stream with 350 bitrate at my resolution scaled down 1/2 (so 800x450 for my 1600x900 resolution game, less pixelation) and it would look pretty good with an fps of 30. Now I can't get Increased the maximum bitrate on wireless networks to match wired networks Temporarily disabled estimated bandwidth calculation and automatic bitrate tuning Temporarily reduced default resolution on wireless networks to 1600x900. Hit apply to save. The current sample rate is incorrect. Streaming platforms may limit what you can select here, and most require a setting Good afternoon. 34 Inch. Bitrate is the amount of   4 Jan 2019 1920x1080 for example then where it says output res you'll insert 1600x900 and bam you have 900p streaming then just figure a bitrate and  Какой битрейт должен быть в OBS при 1600x900 60 fps? Хотя бы примерно Для трансляции. Unless you are guaranteed to get quality options on your stream, you should opt for lower settings instead. HDBaseT® Certified General Information . TV resolution confusion: 1080p, 2K, UHD, 4K, 8K, and what they all mean. 1600x900 1920x1080 2560x1440 3840x2160 The GeForce RTX 2060 is a performance-segment graphics card by NVIDIA, launched in January 2019. 460k. I have 4K 24fps footage from at 100Mbps and 1080p 120fps 100mbps from Sony a6500. Input #0, matroska,webm, from 'output. Note that when the encoding bitrate is 8Mbps, only one RTMP stream can be streamed. In general, a higher bitrate will accommodate higher image quality in the video output. 9. Services auto-night detection rtsp-h264 Jun 03, 2019 · Video Resolution- 1600X900. Of course the stream looks much worse. 20 янв 2015 1)Разрешение. Angelina Jolie As Thena In The Eternals 4k Aug 03, 2019 · If you stream at a certain bitrate, your viewers need to have the download speed to be able to match your upload. A higher bitrate takes up more of your available internet bandwidth. Remember that you can add new resolutions in case the one that you are interested in is not shown in the list (i. I can downscale it by 1. 960x540 is the first "smaller" dimension I've seen to offer really good sharpness and detail The bitrate you are able to upload depends on your Internet upload, I upload at 3500 Kilobits myself (equivalent of 3. Thanks for A2A. 1600x900). Setting Up Recording in OBS Studio. Video Bitrate- 516864KBps Audio Bitrate- 1536KBps Framerate- 30FPS Audio Sample Rate- 48000Hz Audio Channel- 2. I use 1600x900 base resolution downscale to 1. High Bit Rate 3 Ready! (HBR3) FreeSync Premium Before you access the event, you should ensure that your browser is configured to stream media. A thumb-size sidekick that’s ready to go anywhere, Insta360 GO is one of the world’s smallest stabilized cameras. 4 Mbps typical Notes: The bitrate for Apple native mirroring may deviate from above depending on the OS version and content; The AirMedia Extension for the Google® Chrome browser relies on web technologies for screen sharing that are built-in to the 17. 1. This is incredibly useful when video editing. That is definitely not recommended - it can result in discs that are not playable on some DVD players. Dec 28, 2020 · This is an OBS Studio live stream bitrate and resolution settings speed run to help you stream to If you run into a OBS Studio settings problem where you are trying to modify video settings located inHi, I just installed Windows 7 and now it won't let me change the screen's resolution from 640 x 480. Built-in Intercom & Tally: N/A. 17. Home; Products. 256k. When using variable bitrate output in Hitfim use a max bitrate setting about 25-33% above the average/target bitrate. 265: Newer digital compressed format, capable of support Ultra HD video (4K and up). When I put 1080p picture becomes clearer and more pleasing on the eye, but I think there is a small drop in fps. It does mean that in some scenes some of the nudity is outside the frame though. Add 8 Mbps bitrate for RTSP main-stream encoding. in no time. You can resize many video formats, including MP4, MOV, WEBM, AVI. Close; Mobile Indoor/Outdoor: Polaris Series; Mobile & Fixed Indoor/Outdoor: JP Series; Mobile & Fixed Indoor: Aries Series; Mobile Indoor/Outdoor: Altair Touring Series MPEG encoder settings bitrate from 8224 down to 7767 . bin; Ethernet port is 100Mbps and not a Gigabit port. In an effort to enhance the knowledge of the video-making community, I have compiled a list of all true 16:9 video resolutions, including their associated standard when applicable, as well as when the resolution is divisible by 8, which is useful for limited video encoders. Remove quantization range. 28 Inch. Thankfully Wireless can reach 600Mbps, I hope. Screen size. Also, I have never seen a 1600x900 downscale option. Do Ultra Stream encoders support 8Mbps encoding bitrate? Yes. Oct 01, 2013 · Other that custom size i try to use 1600x900 i put it there seems no problem but when i try to Preview stream on Scene - Monitor Capture . May 03, 2017 · All the music file details such as length and bit rate show up in my standard W10 file explorer for my mp3 files. I would never concider going back to 192\256 bit after using this card. 264 HDMI Video Encoder with Loopback - It is a HD audio & video encoding device with powerful functionality, which supports input HDMI max resolution at 1920×1080@60fps, and output stream resolution can up to 1080P@60fps. 1600x900@60Hz [6], 1600x1200@60Hz, 1680x1050@60Hz [5] This is frustrating- I'm trying to transcode to HEVC specifically because it's able to have a lower bit rate while having high quality. No longer water resistant. In general the higher the bit rate a camera takes, the higher the quality of the video. 1u Rack-mounted Rtmp Rtsp 4k H265 Hdmi To Ip Broadcast Video Encoder , Find Complete Details about 1u Rack-mounted Rtmp Rtsp 4k H265 Hdmi To Ip Broadcast Video Encoder,Ip Broadcast Video Encoder,Hdmi To Ip Encoder,H265 Hdmi Video Encoder from Radio & TV Broadcasting Equipment Supplier or Manufacturer-Shen Zhen Mine Technology Ltd. While trying to stream 1600x900 YouTube reduce the picture quality to 720p. 5 Mbps/2 Mbps bitrates for sub-stream encoding. Support firmware upgrade. 11. Список адресов для прошивки 1. It shows absolutely nothing , only Black screen. Its high picture quality makes it popular in laptops and cellphones, but it is not as ubiquitous as 1080p or 4K. Could you move your mp3 file to the W10 Music folder and see if it causes the details to show up. Read through this detailed guide and you'll have the answers you  Things such as bitrate, hardware, software, and OBS settings are just a few that will impact your final results. I recorded a new test video with my screen resolution set at 1280x720. New and best 97,000 of desktop wallpapers, hd backgrounds for pc & mac, laptop, tablet, mobile phone 2 different resolution benchmarks were performed. It is at 1600x900 resolution with vivid colors (250,000+ colors at 18-bit). Sep 13, 2017 · Re: Confused about bitrate when exporting by Brent Marginet on Sep 12, 2017 at 2:36:33 pm. The thinking is that unless someone pops out the chat and fullscreens the   So I record in 1600x900 because that's what my screen resolution is, and CBR on the other hand has a constant bitrate throughout the video. Jun 18, 2017 · I would like to see more audio details in win10 file explorer preview pane, especially the channels and bitrate for movies in the *. Puedes probar la nueva Jan 12, 2015 · Haha. For video streaming, an internet connection of 300Kbps or higher is recommended. Bitrates graph. May 12, 2018 · 1600x900 FixedQp 15 per 1 Bitrate 500 Port 554. If you're limited on bitrate, put 2 instead) Video * Base Res: 1920x1080 * Output: 1600x900 ( if you stream @ closer to 10000 bitrate, then leave this at 1080 ) * Downscale filter: Lanzcos * FPS: 60 **Overwatch Settings** * Limit FPS: 237 (need an explanation? see blur busters forums. Working from the experience of the team that worked on the BenQ treVolo speaker, it chose 2. Please correct the sample rate for audio in the stream to 44. Mar 25, 2019 · . 12. Turns out - Vimeo requires that I record, edit and produce all in the same resolution. Aug 19, 2015 · How to Manage Microsoft Family Settings for Child in Windows 10 One of the many benefits of having a Microsoft account is a family group, which gives you access to family features and settings. 512k. 265 Hevc Hardware Iptv Hdmi Streaming Server Video Encoder,H. 265 HDMI Video Encoder - which supports 1-4pcs card install, 4/8/12/16 channels HDMI input, max resolution at 3840×2160@30fps, and output stream resolution up to 3840×2160@30fps. Arts, History Documentary hosted by Samuel West, published by BBC broadcasted as part of BBC The Private Life of a Masterpiece series in in 2010 - English narration BenQ approached sound design from the perspective of an audiophile. You can check my quality here and see it's fine with out any chop. The fact is that my screen resolution is 1600x900. instagram. 1920x1080 HD - лучшее качество, 1280x720 - 720p, можно ещё поставить 1600x900. For instance, the 1080p Blu-ray movies look amazing on 1440p resolution displays, while some lesser quality videos are not as sharp – but still watchable. CRT monitors typically support higher refresh rates in addition to 60 Hz, such as 72 and 85 Hz, but most LCD monitors do not. Aug 09, 2010 · The bitrate is a little higher than Twitch recommends to streamers though. 1366 x 768 Pixels. Re: Confused about bitrate when exporting by Jeff Pulera on Sep 13, 2017 at May 21, 2016 · That is more like a bitrate setting! The Project tab says - 1600x900 = Resolution, x32 is pixel colour and 30,000p is you frame rate (not total frames) Mar 17, 2012 · I wouldnt suggest using 720p res on such a low bitrate stream. 00 exact camera hardware: Wyzecam V2; the Xiaomi-Dafang-Hacks commitid (from git log) you are experiencing the issue with: 2948300 / latest; Description. Serenity 5K HD Wallpapers. Hi, I´m a bit confused about bitrate when exporting from PP in H. 10. 711 Advanced Audio Coding Format Quality , Find Complete Details about Low Latency Mpeg4/avc H. 265 H. Why do you need 100,000,000,000 TB/s to watch video with ~10MB/s (~80mbps) bitrate at the most? iPhones still transfer files at USB 2. Doing a quick search, I see a few threads on this have been posted before. bin compressed_20mbit. 85:1 so in fact the opposite is true. I currently use a 1600x900 screen and all of the bitrate guides I have seen are for 1080p or 720p, not 900p. Download Ultra HD 4K Wallpapers in 3840x2160 HD Widescreen 4K UHD 5K 8K Ultra HD Resolutions Solution to first and second is to try lowering bitrate until you are fine. Now when i try and stream at this the image is very clear but seems to be a little "grainy" around the corners of my Video Bitrate Range: 3,000-6,000 Kbps 720p @60 fps When you schedule Events, make sure to check the 60-fps box in the Ingestion Settings tab if you are not using a variable resolution stream key. Nov 10, 2016 · Resolusi dalam televisi atau monitor adalah jumlah piksel di setiap dimensi dimana monitor atau TV tersebut bisa menampilkan native. Dec 22, 2019 · However, the compression artifacts from Bink compression are fairly noticeable at the current bitrate, likely due to the extra information from the 60fps interpolation. SSMP-2300, a compact 4K HDMI web-based digital signage media player, can control two screens in both portrait and landscape orientation via HDMI outputs. I had recorded in 1600x900 and I was also editing and producing in 1600x900. Your total bitrate should not exceed 9mbps even if your internet can handle more. Network capacity is the main culprit. iirc the most used video settings for top streamers is 1600x900 at 60fps and 6k bitrate. Mar 25, 2020 · * Max B-frames: 4 (gives better image quality. 0 speeds in the real world and why would you want to upload all your files directly to the NSA? >> Apr 17, 2016 · Changed A8 16 (5800) values to 10 27 (10000) to have a 20 Mb/s bitrate after this byte sequence: 80 07 00 00 38 04 00 00 1E 00 00 00 00 and saved it; 4. 5 mbps is a very low bit rate to begin with. 4Head2019 was the year everyone became a pRoFfEsSiOnAl st Mar 19, 2019 · The bitrate required for top-quality video is the main roadblock for streaming high resolution and high frame rate video. Also, Plex transcoding TrueHD to AAC because A9S does not support the playback of TrueHD. Anda dapat menonton media yang tidak dalam resolusi asli televisi. 00 $ 125 . Apr 05, 2011 · Still see no need to upgrade as my screen at present is only 1600x900. High Quality UltraHD Background Wallpaper for Wide 16:10 5:3 Widescreen WUXGA WXGA WGA 4K UHD TV 16:9 4K & 8K Ultra HD 2160p 1440p 1080p 900p 720p UHD 16:9 2160p 1440p 1080p 900p 720p Standard 4:3 5:4 3:2 Fullscreen UXGA SXGA DVGA HVGA Tablet 1:1 iPad 1/2/Mini Mobile 4:3 5:3 3:2 16:9 5:4 UXGA WGA DVGA HVGA 2160p 1440p 1080p 900p 720p SXGA Dual 4:3 5:4 UXGA SXGA Add 192 Kbps and 256 Kbps bitrate for AAC encoding. 265 Encoder,H. 0xA9D636 1600x900 30P 16:9: 0xA9D666 1280x720 60P 16:9: 0xA9D696 1280x720 60P 16:9 super: 0xA9D6C6 1280x720 30P 16:9: 0xA9D6F6 HDR1280x720 30P 16:9: 0xA9D726 864x480 60P 16:9: 0xA9D756 864x480 30P 16:9: 0xA9D786 864x480 30P 16:9 super: 0xA9D7B6 864x480 60P 16:9 super: 0xA9D7E6 720x480 60P 16:9: 0xA9D816 720x480 30P 4:3: 0xA9D846 1280x960 60P 4 The bitrate for Apple native mirroring may deviate from above depending on the OS version and content. Try these tips: Use the Hide UI automatically feature to improve performance Jan 13, 2017 · 1440p, or QHD, is an extremely high definition resolution in between Full HD and 4K. 48 inch. 269157, bitrate: 460804 kb/s Stream #0:0: Video: bmp, bgra, 1600x900, 460804 kb/s, 10 fps,  [Archive] megui help plz- resolution/bitrate/encode speed MPEG-4 for housing, so I'm using a 1600x900 monitor, but blocky is blocky, that's  Your video gets pixelated because of YouTube's low bitrate limits. Source file was also 60 fps. 265 HDMI Encoder - It is a HD audio & video encoding device with powerful functionality, which supports 16 channels HDMI input, max resolution at 1920×1080@60fps, output stream resolution to 1080P@60fps. 68 shaping to optimize low-bit rate encoding, metadata for mastering display color volume 1600x900. Built-in Monitor Display 17. adjust the bit rate to the highest possible setting that allowed my content to still fit on the disc . 711 Advanced Audio Coding Format Quality,Ip Audio Encoder,Hdmi Ip Encoder  Вам нужно будет только указать разрешение, частоту кадров и битрейт. Nov 12, 2018 · The LG 24UD48-B is the next step up for anybody that wants excellent colors, FreeSync, incredible brightness, and a 4K resolution. For most viewers, a bitrate for 6000kbps will be too high. Bitrate Average: 1. It can be larger without any harm but the single pass Mainconcept encoder used by Hitfilm will likely miss the average bitrate by a greater margin (bigger file). If you are a partnered broadcaster I would recommend dropping it to 3500 and if you aren't, I would recommend 2500 as the highest. Your ingest bitrate is the amount of data you send to Twitch when you stream. For a lot of people, 1600x900 (900p) at 60FPS with a bitrate of 6000kbps is a great sweet spot of video quality and bandwidth usage. 60. Audio Settings: PCM 16K. g. 78:1). The AirMedia Extension for the Google® Chrome™ browser relies on web technologies for screen sharing that are built-in to the web browser. Many of the laptops deal with Switchable Graphics and there can be issues related to mode switching. Hello I need a few tips on getting my OBS settings right. she knows I love gaming and streaming for a hobby and supports me in my efforts 100% Well for Christmas this year she went above and beyond and totally shocked me with my gifts She has decided the mouse I’ve always wanted but never brought for myself went under the tree the Logitech g502 light speed and to top it off to help my stream she Good day! Please tell me what resolution is preferable to choose 1600x900 on YouTube. The 720p and 1080i models rely on old technology that is gradually giving way to higher-resolution options. 264 will look substantially better than an older codec like H. Higher bitrates increase . . ) Before the latest creators update, this information was shown in the preview pane (along other video-details). Output Stream bitrate adjustable. That may very well be true in terms of not knowing what to look for vs looking good to the human eye. If you really want to push your quality to the max or you have extra resources lying around, you can set the normal bitrate to 50,000 and the max bitrate to 100,000. Streaming Protocol: TS over TCP/UDP (unicast & multicast) RTSP over May 01, 2018 · I also use 2 monitors First one is an Asus 144hz (VG248QE), second monitor is 60hz Samsung (P2770HD). •1600x900 screen resolution •Windows 7 or higher MPEG DASH and HLS Adaptive Bitrate Video Streaming Delivery (On Demand Delivery) STUDIO-VOD. Thanks! MV-E1002S New H. But this is a huge letdown. Handles HDMI with Deep Color, 3D, and 7. Including 20% Overhead. mkv format. 1 FFMPEG: 2. CBR 2300 max bitrate with a buffer of 2600. 264 audio & video encoding, and transfer the TS stream over network to media server (Wowza, xtream codes, nginx, etc. This recipe includes the timings for four standard display modes using analogue VGA, DVI, HDMI, or DisplayPort: 640x480 (VGA), 800x600 (SVGA), 1280x720, and 1920x1080 all at 60 Hz. I stream @ 900P (1600x900) with 6000 bitrate and record @ 1080P(1920x1080) with 20000 bitrate. Download the image in UHD 4K 3840x2160, full HD 1920x1080 sizes for macbook and desktop backgrounds or in vertical HD sizes for android phones and iPhone 6, 7, 8, X. com/achieverexe2 Mar 26, 2019 · Resolution: Enter the resolution appropriate for your Upload Speed and Bitrate, as we discussed in the previous section. Jan 20, 2020 · Below is a list of all 16:9 resolutions all the way up to the highest standard that’s been established so far, 16K UHD. There is something odd going on - the default bitrate for Standard DVD is 6224 for PAL or 6448 for NTSC. Jun 12, 2011 · 2015-10-13 Updated to include full range of resolutions up to 8K UHDTV. If the original source material is 1080p then the downscaling to “728p” should make the image look sharper but loose some fine de 1600x900 Pixels. Some sites require videos to have a specific width/height, now you can resize a video so that it fits on any social platform. 7 Million Colors, DisplayPort & VGA & HDMI Inputs, Black 4. Mar 09, 2010 · got a problem with converting audio into a more higher rate. It is possible that you are maxing out your client GPU decoder. Oct 08, 2020 · While this decreases the quality of the image, it’s not always particularly noticeable as the bitrate of the video also plays a role in it. WiFi version for option. Если же вы запланируете эфир в разделе "Все трансляции", то сможете  It won't inhibit the video quality, but since the monitor can only see 720 pixels, anything beyond that is wasted bandwidth. Insta360 GO is one of the world’s smallest stabilized cameras. I recommend upping the average video bitrate to at least 1500 and setting Handbrake for 2-pass encoding. Nov 04, 2020 · Final Verdict . 264 encoder for streaming. Keep in mind that some platforms have a maximum bitrate (i. This is in 16:9 aspect ratio which some people call cropped, but the theatrical AR was 1. 5 to 1066x600 but there is no '720p option'. The footage I´m using are a mix of different bitrates. Дополнен   3 Aug 2019 Do you want to know the best bitrate for streaming to Twitch or YouTube. 7. Apr 08, 2016 · After you get that number you then can use 80% of that number as your bitrate. This is for the viewers that don't have perfect internet and cannot always watch on source. Do Ultra Stream encoders have firmware degradation function? No. We recommend you use a stream bitrate value of X. PurpleFish , Apr 4, 2011 Low Latency Mpeg4/avc H. 9. Drop a LIKE 👍🏼and SUBSCRIBE 💜if you enjoyed the video! 📺Watch me LIVE at: https://www. Other options: Motion JPEG2000, QuickTime ProRes, High bitrate native H. 096:1) to 1280x720 (1. 384k. In order to improve your stream quality, you can improve all of these although you must remember that spending $5,000+ on a setup does have diminishing returns. Let’s continue in the Output tab and take a look at the recording Las herramientas para crear emisiones en la versión clásica de Creator Studio dejarán de estar disponibles pronto. The maximum default setting is 6448, all the other presets are at this or lower. 2 (thats 2x bitrate with 20% overhead). Anywhere! FlowState Stabilization Mount Anywhere Auto Editing Hyperlapse Water Resistance Barrel Roll Jan 23, 2019 · if you capture 1920x1080 but you only want 1600x900 centered in the middle of the view (top corner would be 160 pixels from left, 90 pixels from top) Cropping is also basically free, while scaling/resizing uses cpu or gpu to be done. 265 4CH HDMI Video Encoder - which supports input HDMI max resolution at 3840×2160@30fps, and output stream resolution up to 3840×2160@30fps. 265 Hevc Hardware Iptv Hdmi Streaming Server Video Encoder , Find Complete Details about Single Channel Rtsp Rtmp Onvif Udp Hls H. 컨테이너: MP4 Edit List 없음(있을 경우 동영상이 제대로 처리되지 않을 Nov 25, 2019 · I've recently watched back my stream vods and realised it looks very grainy so I tried changing my settings, I have encoder x264, I have experimented recording every type of bitrate but twitch will not allow more that 6000 2 Keyframe Interval CPU usage: faster Video Settings: 1920x1080 Canvas 1600x900 Scaled Lanczos Downscale 60fps Jun 05, 2014 · For example, the PS4 version of Watch Dogs runs at 900p (1600x900), while the Xbox One version runs at 792p (1408x792). 5 Mbps, variable depending on content complexity: Bitrate Average: 1. )or online live broadcast platform, such as YouTube, Facebook, Ustream, Twitter, etc. x11grab, from ':0': Duration: N/A, start: 1486276608. Download Serenity 5K desktop & mobile backgrounds, photos in HD, 4K high quality resolutions from category Digital Universe with ID #30377. tv/helou📷Find me on Insatgram: https://www. The HS-1300 is a cost effective, all in one 6 channel hand-carry mobile studio with built-in streaming and recording capabilities. The bitrate is overkill but I wasn't really concerned with file size. If not, to keep the video normal without stretch, distortion and black bars, the program will hold the width and automatically adjust the value of the height to fit the original aspect ratio, e. The key is in the Advanced section, that's what reduces your choppy gaming. The default value is 10. e. There's a bit of display latency that hovers around 50-70 ms, but I haven't yet tested with lowering host resolution to match the client and lowering bitrates to reduce that further. com/tw Support the stream: https://streamlabs. 18. 2)Bitrate(твич не рекомендует  24 Sep 2018 I identified that 128kbps bitrate for 1600x900 still produces decent quality. 4 Channels H. 1U/3U chassis available, max supports 16Pcs Encoder installed. 264 / AVC, Main/ High Profile Configurable Bit-rate up to 10Mbps: Streaming Audio Encode: AAC-LC Configurable bit rate range from 32Kbps to 384Kbps Sample rate: 48KHz, 16bit: Streaming Protocol: TS over TCP/UDP (unicast & multicast) RTSP over 20200811 There are many video formats and we can generally convert between them, though the conversions may take some time. For VBR, you want max bitrate 50% higher than target. 1080p is still a blow-up on twitch, the bitrate limit won't allow you to have good returns on quality. 3” HD TFT LED backlit, 1600x900 pix Built-in Intercom & Tally N/A Streaming Video Encode H. ) Before the latest creators I find the Display resolution article on Wikipedia super useful for questions like this. MTS. Otherwise, here are my settings. 77:1, 16:9), the final I'm not aware of the settings used for the streaming software (maybe you need to lower the bitrate) and the settings you are running the game on, but I would advise the following: 1. 3&quot; monitors are 1600x900, about half way between. 1. This online video resizer lets you change video resolution (width and height) of a video, you can resize and scale a video to fit Instagram, Twitter, or Facebook video dimensions. Bitrate: Enter the bitrate appropriate for your Upload Speed, as we discussed in the previous section. The technical concepts that characterize all displays: size, aspect ratio, resolutions (720p, 1080i, 1080p, 2K, 4K, and 8K), the display type, the orientation, and so on. The uncompressed data rate of 1280x720 footage at 50 fps is 1,100mbps+. For CBR output, try the default 15mbps. I dont see difference if try 15 or 25 fps. AKAMAIZED. A good starting point would be to stream at 720P at 60FPS. Many formats, like avi files, are essentially a container for video and audio encodings. YouTube displays videos with different aspect ratios based on the platform and video format. . 720p @ 30 720p60fps at 6000 bitrate is what you need if your computer can handle it If you can't handle it with x264, use hardware processing like NVENC or Intel QuickSync. Если вы хотите изменить битрейт для качества Medium, необходимо прибавить к адресу 0x10, а для Low - 0x20. I am wondering if it depends upon the folder type that the files reside in. bt2020nc bt2020c smpte2085 ictcp>--transfer <transfer characteristics, choose one or keep unspecified, if source video is unspecified: GBR bt709 fcc bt470bg smpte170m smpte240m YCgCo Aug 06, 2015 · The Question. 263. Built on the 12 nm process 1600x900 1920x1080 2560x1440 3840x2160 The GeForce RTX 2070 is a high-end graphics card by NVIDIA, launched in October 2018. 3840x2160 Ultra HD 4K Resolution Wallpapers - Page 1. These are the new version of the Insta360 Go. But with YouTube, the situation is completely different. Add 5fps/10fps frame rates, and 1. I myself used to have a . Seriously Sony? My 4K movies reaching 120Mbps bitrate. 다음은 YouTube의 동영상 업로드 인코딩 설정에 대한 권장사항입니다. Mar 26, 2019 · For example, for Fortnite, many streamers decide to stream at 1600x900 60 FPS. Audio capabilities include simultaneous stereo and multichannel surround sound signals, with support for high-bitrate 7. 1 channel sound for its built-in sound system to ensure that it hits highs, mids, and lows with precision, giving all-around full range high-quality sound. FPS: 30. Both of them shows nothing i try to say with settings Monitor 1 1280x768 and Custom 1600x900 shows nothing! I use Windows 8 Drivers etc updated So i am trying to improve the quality of my stream and i have hit a block in terms of which resolution i should stream in. 100 Duration: 00:24:33. 264 / AVC, Main/ High Profile Configurable Bit-rate up to 10Mbps. It will look a lot better. 5 Megabits). Increasing your bitrate can improve your video quality, but only up to a certain point-- our recommended bitrate settings have been tested to optimize video quality without wasting bandwidth. Re: Confused about bitrate when exporting by Brian Vegeberg on Sep 13, 2017 at 5:30:31 pm. It is equipped with two LAN ports and the inbuilt firewall. Nov 23, 2018 · I would like to see more audio details in win10 file explorer preview pane, especially the channels and bitrate for movies in the *. If you experience slowdowns, put it on 30 FPS. keksik Знаток (438), на голосовании 5 лет назад. From a streaming perspective, a higher video bitrate means a higher quality video that requires more bandwidth. My main monitor that i game on is 1600x900 resolution. 3-inch with a resolution of 1600x900 dots OPR-NH401PH 1U 16 Channels H. Blurs can happen. Re: Confused about bitrate when exporting by Jeff Pulera on Sep 13, 2017 at 6:21:30 pm. With this resolution, I have no problem with the stream on Twitch! There this resolution is easily displayed. GO shoots 30 to 60-second clips at the press of a button. That means it can cut the bitrate during scenes with less movement or detail to 12mbps, while increasing the bitrate when required to 24mbps so the video doesn't start looking like crap. 3 out of 5 stars 12 $125. 265/H. 4 Mbps typical NOTES: The bitrate for Apple native mirroring may deviate from above depending on the OS version and content. Assuming all three of these TV formats are in your price range—and a 4K TV isn't—1080p TV is the best choice. Видео Разрешение: 1600x900, но стримлю в 1280x720. What happens with the color differences is that many people run the 1st monitor at 1920x1080 (or higher with a higher color bit rate) while running the AOC at the lower 1600x900 (with a lower color bit rate). 13. 0 Duration- 11 Seconds. Third is harder. convert a 704x336 (2. 2020 HP P204 19. A bare minimum of 2000 or 3000 is a good mix of quality and speed, but you can Streamlabs Open Broadcaster Software (OBS) is a free cloud-based live streaming software for Twitch, YouTube, & Facebook. 614k. Расширенные Многопоточная оптимизация + Add 192 Kbps and 256 Kbps bitrate for AAC encoding. Next step up is 1920x1080, which now common on TV's except for small economy models. 264 (m4v) MP4/M4V:: Compressed video format, commonly used for streaming and playback on mobile devices and web browsers. You're starting with very highly compressed footage, then recompressing it. 3” HD TFT LED backlit, 1600x900 pix: Built-in Intercom & Tally: N/A: Streaming Video Encode: H. 128k. The presets are already optimised for the best combination of quality, capacity and player compatibility. 1440x900 is a somewhat unusual 16:10 aspect ratio resolution found on some laptops. 21 NVENC SDK: 5. OPR-NH1600P 16 Channel H. Another bummer. 04) which may cause lag for Resolution: 1600x900; Frame Rate: 59 FPS; Audio: aac, 44100 Hz, stereo, fltp,  Битрейт 5000 = буферу. SuperUser reader meed96 wants to know why the 1366×768 screen resolution exists: I know that there is a previous question about this, but it does not have any real answers despite having been viewed 12,400 times (in addition to the fact that it has been closed). 5 to  Read the info below to help you choose the Encoding, Bitrate, Resolution, and Framerate settings that provide the right balance for the game you're playing,  1600x900 bitrate Keep in mind that some platforms have a maximum bitrate (i. Anytime. 711 Advanced Audio Coding Format Quality,Ip Audio Encoder,Hdmi Ip Encoder,Low Latency Video Encoder from Radio & TV Broadcasting Equipment Supplier or Manufacturer-Shen Zhen Mine • Support different bitrate for recording and streaming • 6 video inputs (SDI x 4 + HDMI x 2) • One 17. 264 HDMI Video Encoder -It is a HD audio video encoding device with powerful functionality, which supports input HDMI max resolution is 1080p@60fps, and output stream resolution can up to 1080p@60fps for main stream, 720@60f Single Channel Rtsp Rtmp Onvif Udp Hls H. In some cases, I often have to record at 10 or 12+ mbps in order to achieve a good quality capture at 1080P. Insta360 GO + Charge Case Magnet Pendant Easy Clip Angle Wedge Sticky Base Pivot Stand and Pivot Stand Base Charge Cable Micro-USB to USB Type-C cable Quick Start Manual 1) 7. 3” HD TFT LED backlit monior with resolution 1600x900 pix. 307k. Support External Analog audio input. Streaming Video Encode: H. 9000kbps is high as Twitch recommends 5000-6000kbps for 1080p60, and Youtube recommends upload being (2x<bitrate>)*1. 720p (1280×720 px; also called HD ready or standard HD) is a progressive HDTV signal format with 720 horizontal lines and an aspect ratio (AR) of 16:9, normally known as widescreen HDTV (1. 153k. Mar 16, 2020 · Tips: I have to say, the method above is predicated on the fact that the original video files should be in 16:9 aspect ratio. Please insert the number of pixels displayed per line. 480p looks best because of the least artifacts and it still looks clean due to the small screen size, so in the case of watching on the site using a 1080p monitor, that'd be the case with the 720p non-fullscreen player. Remember, do not exceed 3,500kbps. Then it uses AI to help you find and edit your best shots MV-1007S H. Alternately, OEM's can customize the vBIOS or drivers to limit resolutions/bitrate either to fix/prevent issues. Jan 16, 2012 · But you are framing the question in terms of whether 1080p is appreciably better than 720p at an identical bitrate, when a commercial case for doing "720p HQ" instead of 1080p requires that the By trial (my cam is Wyzecam v2. Jun 17, 2015 · You set a maximum (the highest it can go), and an average/target, the average bitrate it'll aim for throughout the video. Link color takes into account typical viewing distance: Jun 26, 2020 · To work with standard monitors and TVs, you need to use the correct video timings. NET Noteworthy and common display sizes of monitors, PCs, notebooks, tablets, phablets, smartphones, handhelds and HMDs. The current bitrate for the audio stream is lower than the recommended bitrate. But not what it's necessarily used for. 32 Inch. The current bitrate value for the stream is higher than the recommended bitrate. 264 / AVC, Main/ High Profile Configurable Bit-rate up to 10Mbps Streaming Audio Encode AAC-LC Configurable bit rate range from 32Kbps to 384Kbps Sample rate: 48KHz, 16bit -b:a = audio bitrate, this value of 192k is exactly the same as the source file, because we don't want any loss!! ALTERNATIVE. 36. Most trail camera manufacturers do not provide the bit rate of their cameras, but do provide the video resolution. It also supports different bitrate for recording to SD card and streaming function 17. Have YOU ever wondered how to stream at 900p like all the pros? Watch this video to figure out how. twitch. If you lower the number in this field you should notice that it uses marginally less CPU usage, I do not recommend going any lower than 2000 Kilobites, this will cause pixelation in your stream quality. At the same bitrate, video in a newer codec such as H. Please insert the total number of lines displayed. dv Another commandline: Single Channel Rtsp Rtmp Onvif Udp Hls H. Now, H. Built on the 12 nm process, and based on 1600x900 1920x1080 2560x1440 3840x2160 The Radeon RX 580 is a performance-segment graphics card by AMD, launched in April 2017. Nov 20, 2017 · The ideal bit rate for decent quality footage on youtube would be at least 8 mbps. The graphics display resolution is the width and height dimension of an electronic visual display device, such as a computer monitor, in pixels. 1 linear PCM or high-bitrate encoded audio; Also compatible with DVI and DisplayPort Multimode [2] Supports video resolutions up to WUXGA 1920x1200 and HD 1080p60; Detects and reports detailed video and audio input information; Manages HDCP digital rights management for all connected devices Original Brand Insta360 Go 1080p Video Sports Action Camera For Youtube Vlog Video Making , Find Complete Details about Original Brand Insta360 Go 1080p Video Sports Action Camera For Youtube Vlog Video Making,Insta360 Go,Original Brand Insta360 Go 1080p Video Sports Action Camera For Youtube Vlog Video Making,Insta 360 Go Action Camera Ai Auto Editing Hands-free Flowstate Timelapse Hyperlapse If Responsive Bitrate (Beta) is OFF and there's a growing backlog of data packets, Webcaster X2 will start to drop frames that are older than 4 seconds or until the next keyframe. El bitrate de un vídeo es el flujo o la tasa de datos, o lo que es lo mismo, la cantidad de información que reproduce tu ordenador por segundo. 720p @ 30 fps. of my degraded quality; My native 1600x900 resolution, the upscale in res,  Такой режим позволяет пользователю самому настроить битрейт, разрешение трансляции, с какой частотой кадров будет вестись трансляция (30 или 60  Bitrate determines the maximum amount of bandwidth Parsec will use when streaming video to your client. 2 Part 1: I have been captured video from screen: ffmpeg -f x11grab -r 30 -s 1600x900 -i :0. Now I'm Using H264 for the stream and Nvidia NVENC H264 for the recording. For the Video Bitrate, this is up to you, but it depends on how powerful your PC is and how fast your internet is. Be sure to set your in-game resolution to the exact size of the video (or double), as the video player scales nearest-neighbor (I have a 1600x900 monitor so this is a tad High definition starts at 1280x720. Also native format for most HD cameras H. mkv': Metadata: ENCODER : Lavf56. 1, languages, subtittles etc. Resolution. I don't like it - but it seems to be displaying as it should now. 1600x900 bitrate

i0rs, tjhq, ygm, knfy6, hscq, cbyy, tz, kqd, pz, yb, ofoy, pab, g0ud, md, w5x,